vikings Big Bang theory 2018 ita fgt windows 10 young sheldon the good place Ethd Venom 2018 CHRISTMAS vikings s05e12 ddr ita 2018 etrg Mowgli south park evo 1 the walking dead etmovies supernatural ettv doctor who Empire the big bang theory S12E10 bbc LEGACIES The big bang theory ıt 2017 seal team the flash s05e08 ethd titans blindspot nightflyers venom DTONE ita The flash 2 hindi 1080p YIFY ncis dtone it supernatural s14e08 UHD great british bake off s09e10 2018 movies arrow survivor 0 1080P ufc titans s01e09 Legends of tomorrow modern family big bang theory español Supergirl Nightflyers s01e05 Fortitude game of thrones Wwe arrow español 2160p Outlander 720p bohemian rhapsody Xxx 
Warning! Do not Download Without a VPN!
Your IP Address is .   Location is
Download and surf securely, stream unlimited and protect your personal data!
We strongly recommend using SpyOFF VPN!
Become Anonymous with SpyOFF
ETTV Recommended TV Shows
Supernatural.S14E08.HDTV.x264-SVA[ettv] torrent
Legacies.S01E06.HDTV.x264-KILLERS[ettv] torrent
Nightflyers.S01E05.WEBRip.x264-TBS[ettv] torrent
Titans.2018.S01E09.WEBRip.x264-PBS[ettv] torrent

ETTV Recommended Xvid
Venom.2018.BRRip.XViD-ETRG torrent
Mowgli.Legend.of.the.Jungle.2018.V2.HDRip.XviD.AC3-EVO torrent
The.Mermaid.The.Lake.of.the.Dead.2018.BRRip.XviD.AC3-EVO torrent
Hornet.2018.HDRip.XviD.AC3-EVO torrent

ETTV Recommended HD
Venom.2018.1080p.BluRay.x264.DTS-HD.MA.5.1-HDChina[EtHD] torrent
Mowgli 2018 1080p NF Web-DL AVC DDP 5.1-DTOne torrent
The.Festival.2018.1080p.BluRay.X264-AMIABLE[EtHD] torrent
Under.the.Silver.Lake.2018.1080p.BluRay.x264-PSYCHD[EtHD] torrent

ETTV Recommended UHD
Mission Impossible - Fallout.2018.IMAX.Muti.UHD.2160p.Bluray.x265.Atmos.7.1[En+Hi+]-DTOne torrent
Imax Extreme.Adventure-Grand.Canyon.2018.UHD.2160p.Bluray.x265.HDR.DTS-HDMA.5.1-DTOne torrent
Imax Extreme.Adventure-Hidden.Universe.2018.Multi.UHD.2160p.Bluray.x265.HDR.DTS-HDMA.5.1-DTOne torrent
Imax Extreme.Adventure-Tornado.Alley.2018.Multi.UHD.2160p.Bluray.x265.HDR.DTS-HDMA.5.1-DTOne torrent

ETTV Recommended Cam
Bohemian Rhapsody 2018 HDTS.x264.AC3-ETRG torrent
Robin Hood 2018 NEW HDCAM.XViD.AC3-ETRG torrent
Mortal.Engines.2018.HDCAM.XViD.AC3-ETRG torrent
Aquaman 2018 HDCAM.XViD.AC3-ETRG torrent

ETTV Recommended Foreign
Shailaja Reddy Alludu (2018) [TELUGU - 720p - WEB HDRip - x264 - AAC - 2GB] - MAZE torrent
Le.Monde.Est.A.Toi.2018.FRENCH.1080p.WEBRip.x264-TiMELiNE[EtHD] torrent
The Nun (2018) 1080p BluRay x264 Dual Audio [Hindi DD5.1 - English DD5.1] - ESUB ~ Ranvijay torrent
Mowgli.2018.Multi.1080p.HEVC.HDR.DDP.5.1[En+Hi+Ta+Te]-DTOne torrent

Social


Download Torrent "Room 104 S02E08 (1080p AMZN WEB-DL x265 HEVC 10bit AC3 5.1 Qman) [UTR]"

IMDB Details
Description:

N/A

Genre:

N/A

Download Torrent (Magnet)
Download Torrent (File)
Seeds: 163
Leechers: 59
Completed: 871 
Last Checked: 07-12-2018 12:25:54


Loading...
Details
Title:Room 104 S02E08 (1080p AMZN WEB-DL x265 HEVC 10bit AC3 5.1 Qman) [UTR]
Description:





Media Information
General
Format                                   : Matroska
Format version                           : Version 4 / Version 2
File size                                : 230 MiB
Duration                                 : 20 min 34 s
Overall bit rate                         : 1 561 kb/s
Encoded date                             : UTC 2018-12-06 03:11:29
Writing application                      : mkvmerge v28.0.0 ('Voice In My Head') 64-bit
Writing library                          : libebml v1.3.6 + libmatroska v1.4.9

Video
ID                                       : 1
Format                                   : HEVC
Format/Info                              : High Efficiency Video Coding
Format profile                           : Main [email protected]@Main
Codec ID                                 : V_MPEGH/ISO/HEVC
Duration                                 : 20 min 34 s
Bit rate                                 : 920 kb/s
Width                                    : 1 920 pixels
Height                                   : 1 080 pixels
Display aspect ratio                     : 16:9
Frame rate mode                          : Constant
Frame rate                               : 23.976 (24000/1001) FPS
Color space                              : YUV
Chroma subsampling                       : 4:2:0
Bit depth                                : 10 bits
Bits/(Pixel*Frame)                       : 0.018
Stream size                              : 135 MiB (59%)
Writing library                          : x265 2.9+8-27d8424c799d:[Windows][MSVC 1915][64 bit] 10bit
Encoding settings                        : cpuid=1111039 / frame-threads=2 / numa-pools=4 / wpp / no-pmode / no-pme / no-psnr / no-ssim / log-level=2 / input-csp=1 / input-res=1920x1080 / interlace=0 / total-frames=29595 / level-idc=0 / high-tier=1 / uhd-bd=0 / ref=4 / no-allow-non-conformance / no-repeat-headers / annexb / no-aud / no-hrd / info / hash=0 / no-temporal-layers / open-gop / min-keyint=23 / keyint=250 / gop-lookahead=0 / bframes=8 / b-adapt=2 / b-pyramid / bframe-bias=0 / rc-lookahead=50 / lookahead-slices=4 / scenecut=40 / radl=0 / no-intra-refresh / ctu=64 / min-cu-size=8 / no-rect / no-amp / max-tu-size=32 / tu-inter-depth=1 / tu-intra-depth=1 / limit-tu=0 / rdoq-level=2 / dynamic-rd=0.00 / no-ssim-rd / signhide / no-tskip / nr-intra=0 / nr-inter=0 / no-constrained-intra / no-strong-intra-smoothing / max-merge=3 / limit-refs=3 / limit-modes / me=3 / subme=3 / merange=57 / temporal-mvp / weightp / no-weightb / no-analyze-src-pics / deblock=1:1 / no-sao / no-sao-non-deblock / rd=4 / no-early-skip / no-rskip / no-fast-intra / no-tskip-fast / no-cu-lossless / no-b-intra / no-splitrd-skip / rdpenalty=0 / psy-rd=1.40 / psy-rdoq=1.00 / no-rd-refine / no-lossless / cbqpoffs=0 / crqpoffs=0 / rc=crf / crf=21.0 / qcomp=0.60 / qpstep=4 / stats-write=0 / stats-read=0 / ipratio=1.40 / pbratio=1.30 / aq-mode=2 / aq-strength=1.00 / cutree / zone-count=0 / no-strict-cbr / qg-size=32 / no-rc-grain / qpmax=69 / qpmin=0 / no-const-vbv / sar=0 / overscan=0 / videoformat=5 / range=0 / colorprim=2 / transfer=2 / colormatrix=2 / chromaloc=0 / display-window=0 / max-cll=0,0 / min-luma=0 / max-luma=1023 / log2-max-poc-lsb=8 / vui-timing-info / vui-hrd-info / slices=1 / no-opt-qp-pps / no-opt-ref-list-length-pps / no-multi-pass-opt-rps / scenecut-bias=0.05 / no-opt-cu-delta-qp / no-aq-motion / no-hdr / no-hdr-opt / no-dhdr10-opt / no-idr-recovery-sei / analysis-reuse-level=5 / scale-factor=0 / refine-intra=0 / refine-inter=0 / refine-mv=0 / no-limit-sao / ctu-info=0 / no-lowpass-dct / refine-mv-type=0 / copy-pic=1 / max-ausize-factor=1.0 / no-dynamic-refine / no-single-sei
Language                                 : English
Default                                  : Yes
Forced                                   : No

Audio
ID                                       : 2
Format                                   : E-AC-3
Format/Info                              : Enhanced Audio Coding 3
Format settings, Endianness              : Big
Codec ID                                 : A_EAC3
Duration                                 : 20 min 34 s
Bit rate mode                            : Constant
Bit rate                                 : 640 kb/s
Channel(s)                               : 6 channels
Channel positions                        : Front: L C R, Side: L R, LFE
Sampling rate                            : 48.0 kHz
Frame rate                               : 187.500 FPS (256 spf)
Compression mode                         : Lossy
Delay relative to video                  : 23 ms
Stream size                              : 94.2 MiB (41%)
Language                                 : English
Default                                  : Yes
Forced                                   : No

Subtitle
ID                                       : 3
Format                                   : UTF-8
Codec ID                                 : S_TEXT/UTF8
Codec ID/Info                            : UTF-8 Plain Text
Duration                                 : 20 min 20 s
Bit rate                                 : 40 b/s
Count of elements                        : 238
Stream size                              : 6.04 KiB (0%)
Language                                 : English
Default                                  : Yes
Forced                                   : No

Source Information
Release: Unknown Source/NO-GROUP

Category:TV > HEVC/x265
Lang:English  English
Total Size:230 MB
Info Hash:602eea262a0d2d1de1ddecbeb6dfd849a85a54ce
Added By:UTR
Date Added:07-12-2018 12:25:51

Files

File List: 
 File Size
Room.104.S02E08.1080p.AMZN.WEB-DL.x265.10bit.EAC3.6.0-Qman[UTR].mkv230 MB



Loading...
Comments

There are currently no comments. Be the first one to write something !

Disclaimer: None of the files shown here are actually hosted or transmitted by this server. The links are provided solely by this site's users. The site moderation is also a service provided by the site's users. The administrator of this site (ettv.tv) cannot be held responsible for what its users post, or any other actions of its users. You may not use this site to distribute or download any material when you do not have the legal rights to do so. It is your own responsibility to adhere to these terms.

Sitemap