2018 ITA this is us walking dead HDChina The Gifted s02e08 the predator crazy rich asians the big bang theory Doctor Who legends of tomorrow WINDOWS 10 manifest 0 titans Arrow xxx ıt 2017 dtone 2018 movies Blindspot yify the meg the walking dead big bang theory 1080p ethd bohemian rhapsody The Predator 2018 Christmas arrow español big bang theory español evo etmovies the flash fgt star trek discovery español vikings Wwe the flash s05e07 nfl 1 flash s05e07 THE WALKING DEAD ita ddr Ettv supernatural KLEENEX mr robot en español Hindi ita 2018 game of thrones the rookie flash it EVO The Last Kingdom uhd The Gifted empire Supergirl Venom 2018 family guy NCIS etrg venom ita black mirror ita Lethal Weapon great british bake off s09e10 
Warning! Do not Download Without a VPN!
Your IP Address is .   Location is
Download and surf securely, stream unlimited and protect your personal data!
We strongly recommend using SpyOFF VPN!
Become Anonymous with SpyOFF
ETTV Recommended TV Shows
Vikings.S05E11.WEB.h264-CONVOY[ettv] torrent
Empire.2015.S05E08.WEB.x264-TBS[ettv] torrent
Riverdale.US.S03E06.WEB.h264-TBS[ettv] torrent
South.Park.S22E08.HDTV.x264-SVA[ettv] torrent

ETTV Recommended Xvid
Venom.2018.HDRip.XViD-ETRG torrent
The.House.with.a.Clock.in.Its.Walls.2018.HDRip.XViD-ETRG torrent
The.Predator.2018.HDRip.XViD-ETRG torrent
First.Light.2018.BDRip.XviD.AC3-EVO[EtMovies] torrent

ETTV Recommended HD
We.the.Animals.2018..1080p.Bluray.x264.DTS-HDMA.5.1-DTOne torrent
Searching.2018.BluRay.1080p.x264.DTS-HD.MA5.1-DTOne torrent
The.Predator.2018.1080p.WEB-DL.H264.AC3-EVO[EtHD] torrent
Venom.2018.1080p.HDRip.X264-EVO[EtHD] torrent

ETTV Recommended UHD
Mission Impossible - Fallout.2018.IMAX.Muti.UHD.2160p.Bluray.x265.Atmos.7.1[En+Hi+]-DTOne torrent
Escape From Newyork 1981.Multi.mUHD.2160p.x265.HDR.DD.5.1-DTOne torrent
Justice.League.Throne.of.Atlantis.2015.Multi.2160p.mUHD.BluRay.x265.HDR.HEVC.DD.5.1-DTOne torrent
Philadelphia.1993.Multi.mUHD.2160p.Bluray.x265.HEVC.HDR.DD.5.1-DTOne torrent

ETTV Recommended Cam
Widows.2018.HDCAM.XViD.AC3-ETRG torrent
Robin Hood 2018.HDCAM.XViD.AC3-ETRG torrent
Venom.2018.Cropped.HDTS.x264.AC3-ETRG torrent
Ralph Breaks the Internet 2018 HDCAM New Audio XViD AC3-ETRG torrent

ETTV Recommended Foreign
Happy.Phir.Bhag.Jaayegi.(2018).1-3.DVDRip.x264.AC3.Esub-DTOne torrent
Raju Gari Gadhi 2 (2017) 720p UNCUT HDRip x264 Eng Subs [Dual Audio] [Hindi DD 2.0 - Telugu 2.0] Exclusive By -=!Dr.STAR!=- torrent
Snow Queen (2012) 720p BluRay x264 Eng Subs [Dual Audio] [Hindi DD 2.0 - English 5.1] Exclusive By -=!Dr.STAR!=- torrent
Love Letters of a Portuguese Nun - Confessioni proibite di una monaca adolescente (1977).H264.italian.english-MIRCrew torrent

Social


Download Torrent "Venom.2018.1080p.6CH.HDRip.x265-HETeam"

IMDB Details
Description:

N/A

Genre:

N/A

Download Torrent (Magnet)
Download Torrent (File)
Seeds: 1,149
Leechers: 587
Completed: 9,524 
Last Checked: 28-11-2018 10:06:24


Loading...
Details
Title:Venom.2018.1080p.6CH.HDRip.x265-HETeam
Description:








Video
ID                                       : 1
Format                                   : HEVC
Format/Info                              : High Efficiency Video Coding
Format profile                           : [email protected]@Main
Codec ID                                 : V_MPEGH/ISO/HEVC
Duration                                 : 1 h 47 min
Bit rate                                 : 1 600 kb/s
Width                                    : 1 920 pixels
Height                                   : 800 pixels
Display aspect ratio                     : 2.40:1
Frame rate mode                          : Constant
Frame rate                               : 23.976 (24000/1001) FPS
Color space                              : YUV
Chroma subsampling                       : 4:2:0
Bit depth                                : 8 bits
Bits/(Pixel*Frame)                       : 0.043
Stream size                              : 1.20 GiB (89%)
Default                                  : Yes
Forced                                   : No
Color range                              : Limited
Color primaries                          : BT.709
Transfer characteristics                 : BT.709
Matrix coefficients                      : BT.709

Audio
ID                                       : 2
Format                                   : AAC LC SBR
Format/Info                              : Advanced Audio Codec Low Complexity with Spectral Band Replication
Commercial name                          : HE-AAC
Format settings                          : Explicit
Codec ID                                 : A_AAC-2
Duration                                 : 1 h 47 min
Bit rate                                 : 192 kb/s
Channel(s)                               : 6 channels
Channel layout                           : C L R Ls Rs LFE
Sampling rate                            : 48.0 kHz
Frame rate                               : 23.438 FPS (2048 SPF)
Compression mode                         : Lossy
Delay relative to video                  : -87 ms
Stream size                              : 147 MiB (11%)
Default                                  : Yes
Forced                                   : No

Text
ID                                       : 3
Format                                   : UTF-8
Codec ID                                 : S_TEXT/UTF8
Codec ID/Info                            : UTF-8 Plain Text
Duration                                 : 1 h 36 min
Bit rate                                 : 62 b/s
Count of elements                        : 1361
Stream size                              : 44.4 KiB (0%)
Default                                  : Yes
Forced                                   : No




Category:Movies > HEVC/x265
Lang:English  English
Total Size:1.34 GB
Info Hash:920566d7c857815f89aff24e1868014aafae0d25
Added By:HETeam
Date Added:28-11-2018 10:06:16

Files

File List: 
 File Size
Read Me.txt182.00 B
Venom.2018.1080p.HDRip.x265-HETeam.mkv1.34 GB



Loading...
Comments

There are currently no comments. Be the first one to write something !

Disclaimer: None of the files shown here are actually hosted or transmitted by this server. The links are provided solely by this site's users. The site moderation is also a service provided by the site's users. The administrator of this site (ettv.tv) cannot be held responsible for what its users post, or any other actions of its users. You may not use this site to distribute or download any material when you do not have the legal rights to do so. It is your own responsibility to adhere to these terms.

Sitemap